#TITLE:Odysee in 3D;
#SUBTITLE:~Paradox re-edit~;
#ARTIST:Blümchen;
#TITLETRANSLIT:;
#SUBTITLETRANSLIT:;
#ARTISTTRANSLIT:;
#CREDIT:;
#BANNER:odyseein3d.png;
#BACKGROUND:odyseein3d-bg.png;
#LYRICSPATH:;
#CDTITLE:cd.png;
#MUSIC:odysee.mp3;
#OFFSET:0.597;
#SAMPLESTART:74.750;
#SAMPLELENGTH:12.000;
#SELECTABLE:YES;
#BPMS:0.000=179.840,148.000=90.000,156.000=180.000;
#STOPS:;
#BGCHANGES:;
// cache tags:
#FIRSTBEAT:2.250;
#LASTBEAT:316.000;
#SONGFILENAME:Songs/Chilean Keyboard Megapack 3/(Paradox) Odysee in 3D/OdyseeIn3D.sm;
#HASMUSIC:1;
#HASBANNER:1;
#MUSICLENGTH:114.450;
// end cache tags

//---------------dance-single - ----------------
#NOTES:
     dance-single:
     :
     Challenge:
     13:
     1.000,1.000,0.874,0.000,1.000,781.000,100.000,0.000,0.000,0.000:
0000
0000
0000
0000
0000
0000
0000
0000
0000
1000
0000
0000
0000
0001
0000
0000
,
0000
0100
0000
0000
0000
0000
0000
0000
0000
0001
0000
0000
0000
0001
0000
0000
,
0000
0001
0000
0000
0000
0000
0000
0000
0000
0001
0000
0000
0000
0010
0000
0000
,
0000
0100
0000
0000
0000
0001
0000
0000
0000
0010
0000
0000
0000
1000
0000
0000
,
0000
0010
0000
0000
0000
0000
0000
0000
0000
0001
0000
0000
0000
0100
0000
0000
,
0000
0001
0000
0000
0000
1000
0000
0000
0000
0001
0000
0000
0000
1000
0000
0000
,
0000
0000
0000
0010
0000
0000
0000
0000
0000
0000
0000
0000
0000
0000
0000
0000
0000
0000
0000
0000
0000
0000
0000
0000
0000
0000
0010
0000
0000
0000
0000
0000
0000
0000
0000
0000
0000
0000
0100
0000
0000
0000
0000
0000
0000
0000
0000
0000
,
0000
0001
0000
0000
0000
0000
0000
0100
0000
0000
0000
0000
0000
0001
0000
0000
0000
0000
0000
0100
0000
0000
0000
0000
,
0000
1000
0000
0000
0000
0000
0000
0000
0000
0000
0000
0000
0000
0001
0000
0000
0000
0000
0000
0100
0000
0000
0000
0000
,
0000
0010
0000
0000
0000
0000
0000
0000
0000
0000
0000
0000
0000
1000
0000
0000
0000
0000
0000
0100
0000
0000
0000
0000
,
0000
0001
0000
0000
0000
0000
0000
0000
0000
0000
0000
0000
0000
1001
0000
0000
0000
0000
0000
0110
0000
0000
0000
0000
,
0000
1001
0000
0000
0000
0000
0000
1000
0000
0000
0100
0000
0000
0001
0000
0000
0000
0000
0000
1100
0000
0000
0000
0000
,
0000
0011
0000
0000
0000
0000
0000
0000
0000
0000
0000
0000
0000
1000
0000
0000
0000
0000
0000
0001
0000
0000
0000
0000
,
0000
0001
0000
0000
0000
0000
0000
1000
0000
0000
0000
0000
0000
1000
0000
0000
0000
0000
0000
0001
0000
0000
0000
0000
,
0000
1000
0000
0000
0000
0000
0000
0000
0000
0000
0000
0000
0000
1001
0000
0000
0000
0000
0000
1001
0000
0000
0000
0000
,
0000
1010
0000
0000
0000
0000
0000
0011
0000
0000
0000
0000
0000
0101
0000
0000
0000
0000
0000
1100
0000
0000
0000
0000
,
0000
0110
0000
0000
0000
0000
0000
0010
0000
0000
0000
0000
0000
0010
0000
0000
0000
0000
0000
0010
0000
0000
0000
0000
,
1001
0000
0001
1000
0001
1000
0010
0001
,
0110
1000
0100
0010
0100
0010
1000
0001
,
1100
0010
1000
0100
1000
0100
0001
0000
,
0011
0000
0001
0010
0001
0010
1000
0000
,
1001
0000
0010
0001
1000
0100
0010
0000
,
1001
0000
0100
1000
0001
0010
0100
0000
,
1001
0000
0010
0001
0100
0010
1000
0000
,
1001
0000
0100
1000
0010
0100
0001
0000
,
1000
0001
0010
0100
1000
0001
0010
0100
1000
0010
0100
0001
0010
0100
1000
0100
,
0010
0001
0100
0010
1000
0100
0010
0001
0100
0010
1000
0001
0010
0100
1000
0010
,
1000
0100
1000
0010
0100
0001
1000
0010
0100
0001
0010
0100
1000
0010
1000
0001
,
1000
0010
0100
0010
1000
0100
0010
0001
1000
0100
0010
0100
0010
0001
1000
0010
,
0100
0010
0001
1000
0100
0010
0001
0100
0010
1000
0100
1000
0010
0100
0001
1000
,
0100
0010
0010
0100
1000
0010
0100
0001
1000
0001
0010
0100
1000
0010
0100
0001
,
1000
0001
0100
0010
1000
0100
0010
0001
1000
0001
0010
0100
1000
0010
0100
0001
,
1000
0010
0100
0100
0001
1000
0100
0010
0001
1000
0010
1000
0001
0000
0000
0000
,
1000
0001
1000
0000
0001
0000
1000
0000
0000
0000
0010
0000
0000
0000
0100
0000
,
0010
0100
0010
0000
0100
0000
0010
0000
0000
0000
1000
0001
1000
0000
0001
0000
,
1000
0100
0001
0000
0100
0000
1000
0000
0000
0000
0010
0000
0000
0000
0100
0000
,
0010
0100
1000
0000
0100
0000
0010
0000
0000
0000
0100
0001
0010
0000
1000
0000
,
1001
0000
0000
0000
0010
0000
0000
0000
0010
0000
0000
0000
0010
0000
0110
0110
,
0110
0000
0000
0000
1001
0000
0000
0000
1001
0000
0000
0000
1001
0000
1000
1000
,
1000
0100
0010
0001
0010
0000
0001
1000
0100
0010
0100
0010
0001
1000
0001
0010
,
0100
1000
0010
0100
0001
1000
0001
0010
0100
1000
0010
0100
0001
1000
0001
0010
,
0100
1000
0010
0100
0001
0100
0010
1000
0010
0100
0100
0010
1000
0100
0010
0001
,
0010
0100
1000
0001
0100
0010
0100
0010
1000
0100
0010
0001
0100
0010
0100
0010
,
1000
0100
0010
0001
0010
0100
1000
0010
0100
0001
0100
0001
0010
0100
1000
0010
,
1000
0001
0010
0100
1000
1000
0010
0100
0010
1000
0100
0010
0001
1000
0100
0010
,
0001
1000
0010
0100
0001
1000
0100
0010
0001
0001
0010
0100
1000
0010
0100
0000
,
0001
0010
1000
0100
0001
0010
1000
0100
,
0010
0100
1000
0010
0100
1001
1000
0001
0100
0011
1000
0100
0010
0001
1100
0010
,
1000
0100
0010
0101
1000
0010
1000
0100
0010
0101
1000
0010
0100
1010
0100
0001
,
1000
0100
0010
0011
0100
0001
0010
0100
0010
1001
0100
0010
1000
0110
1000
0001
,
1000
0100
1010
0001
0010
0100
1001
0010
0100
0010
1100
0001
0100
0010
1000
0011
,
0100
0010
0100
1001
0010
0001
1000
0110
1000
0100
0010
0001
1100
0010
1000
0100
,
0010
1001
1000
0011
0100
0010
0100
0101
1000
0010
0001
1001
0100
0010
1010
0100
,
0010
0101
1000
0010
0011
1000
0100
0101
1000
0010
0001
1000
1001
0100
0001
0010
,
0100
1000
0011
0100
0001
1000
0000
0000
1000
0000
0000
0000
0001
0000
0000
0000
,
1001
0000
0000
0000
1000
0001
1000
0001
1000
0001
1000
0001
1000
0001
1000
0001
,
1000
0001
1000
0001
1000
0001
1000
0001
1000
0001
1000
0001
1000
0001
1000
0001
,
0100
0010
0100
0010
0100
0010
0100
0010
0100
0010
0100
0010
0100
0010
0100
0010
,
0100
0010
0100
0010
0100
0010
0100
0010
0100
0010
0100
0010
0100
0010
0100
0010
,
0100
0001
0100
0001
0100
0001
0100
0001
0100
0001
0100
0001
0100
0001
0100
0001
,
0100
0001
0100
0001
0100
0001
0100
0001
0100
0001
0100
0001
0100
0001
0100
0001
,
1000
0010
1000
0010
1000
0010
1000
0010
1000
0010
1000
0010
1000
0010
1000
0010
,
1000
0010
1000
0010
1000
0010
0000
0000
1000
0000
0000
0000
0001
0000
0000
0000
,
1001
0000
1000
0100
,
0001
0000
1001
0110
,
1001
0000
1000
0100
0001
0000
1100
0000
,
0011
0000
1000
0001
,
0001
1000
1000
0001
,
1000
0000
1001
1001
,
1010
0011
0101
1100
,
0110
0000
0010
0010
,
1001
0000
0000
0000
0010
1010
0100
0010
1001
0010
0100
1010
0100
0010
0101
0010
,
0100
1001
0100
0010
1001
0100
0101
0010
0100
1010
0001
0010
1001
0100
1000
0110
,
0001
0100
0011
1000
0100
0101
1000
0010
0001
1100
0010
0001
0100
0010
1001
0001
,
0010
1000
0110
0010
0001
1010
0100
1000
0100
1010
0001
0001
0010
0100
1010
0001
,
0010
1001
0100
0001
1000
0110
0010
0001
0100
1000
0101
0010
0010
1000
0110
0001
,
0100
1000
0011
0100
1000
1100
0010
0001
0010
0101
1000
0010
0100
0001
0110
1000
,
0001
1001
1000
0100
0010
1001
0100
1000
0101
0010
1000
0101
0010
0001
0100
0010
,
1000
0100
1010
0001
0010
0100
1000
0000
0100
0000
0000
0000
0100
0000
0000
0000
,
1001
0000
0000
0000
;
